img image001 image001 image001 image001 image001 image001 image001 image001 image001 image001 image001 image001 image001 image001 image001 image001

Planets Sun Sun Sun
Статистика раздачи
Автор: Снежана | Размер: 12.35 ГБ | Добавлен: 13 май 2019
Раздают: 1    Качают: 0
Скачать торрент
Скачать торрент
Описание торрента

СообщениеДобавлено: 13 май 2019 

Никогда не говори «никогда» / Табу (1-3 серии из 8)

Перевод: Не требуется, cубтитры: отсутствуют
Формат: HDTVRip 720p, MKV, H.264, AC3
Страна: Россия
Режиссер: Александр Кананович
Жанр: драма, музыка
Всего серий: 8
Продолжительность: 3 х ~ 02:20:00
Год выпуска: 2018

В ролях: Дарья Щербакова, Кирилл Жандаров, Евгения Малахова, Иван Жидков, Анатолий Руденко, Антон Филипенко, Илья Ермолов, Яков Шамшин, Сергей Кошонин, Игорь Угаров, Анастасия Чурсина, Алексей Коршунов, Андрей Чунарёв, Дмитрий Гудим, Алина Недобитко, Василий Игнатич, Руслан Миколенко, Максим Антипов (II), Никита Серков, Денис Антипов, Елена Тепляшина, Вадим Дубровин (II), Алёна Каллистова

Описание: История исполнительницы эстрадных песен, сумевшей добиться успеха в суровые 90-е годы, но при этом сохранившей внутреннюю чистоту и красоту. Основой сюжета телесериала, определяющей эмоциональное состояние героини на разных этапах ее становления, стали все известные песни Татьяны Булановой: "Простая девочка", "Старшая сестра", "Как жаль", "Не плачь", "Колыбельная", "Не бойтесь любви", "Мой сон" и т.д.
*Все герои и события являются вымышленными, совпадения с реальностью – случайными.


Рейтинг и доп. информация:


Видео: 1280x720, (16:9), 25 fps, AVC MPEG-4 (x264), ~ 4000 kbps , 0.174 bit/pixel
Аудио: 48 kHz, АС3, 2/0 (L,R), ~192.00 kbps avg
Внимание! Раздача ведётся путём добавления новых серий. При каждом добавлении создаётся новый торрент.
Чтобы начать докачку новой серии, пользователям необходимо сделать следующее:
1. Остановить скачивание.
2. Удалить старый торрент у себя из клиента (старые серии удалять не надо).
3. Скачать новый торрент и запустить его у себя в клиенте вместо старого, при этом указать клиенту путь в старую папку куда и должно происходить скачивание новых серий. Ваш клиент при этом должен произвести хеширование (проверку) старой папки и будет докачивать только те серии, которых у вас ещё нет. Старые серии при этом не удаляются, а продолжают раздаваться! Eсли вы уже удалили старые серии, то предотвратить повторную закачку старых серий можно, отжав галочку в соответствующих местах при запуске нового торрента.


Общее
Уникальный идентификатор : 244154993770669745929487821026186461211 (0xB7AE8A96670F41B09BA94680A253801B)
Полное имя : C:\Nikogda.ne.govori.nikogda.2018.HDTVRip.(720p).ExKinoRay\Nikogda.ne.govori.nikogda.(01.seriya).2018.HDTVRip.(720p).ExKinoRay.mkv
Формат : Matroska
Версия формата : Version 4
Размер файла : 4,13 Гбайт
Продолжительность : 2 ч. 21 м.
Общий поток : 4194 Кбит/сек
Дата кодирования : UTC 2019-05-09 10:38:30
Программа кодирования : mkvmerge v7.8.0 (''River Man'') 32bit built on Mar 27 2015 16:18:02
Библиотека кодирования : libebml v1.3.1 + libmatroska v1.4.2

Видео
Идентификатор : 1
Формат : AVC
Формат/Информация : Advanced Video Codec
Профиль формата :
Настройки формата : CABAC / 9 Ref Frames
Параметр CABAC формата : Да
Параметр RefFrames формата : 9 кадров
Идентификатор кодека : V_MPEG4/ISO/AVC
Продолжительность : 2 ч. 21 м.
Битрейт : 4000 Кбит/сек
Ширина : 1280 пикселей
Высота : 720 пикселей
Соотношение сторон : 16:9
Режим частоты кадров : Постоянный
Частота кадров : 25,000 кадров/сек
Цветовое пространство : YUV
Субдискретизация насыщенности : 4:2:0
Битовая глубина : 8 бит
Тип развёртки : Прогрессивная
Бит/(Пиксели*Кадры) : 0.174
Размер потока : 3,86 Гбайт (93%)
Библиотека кодирования : x264 core 146 r2538 121396c
Настройки программы : cabac=1 / ref=9 / deblock=1:-3:-3 / analyse=0x3:0x133 / me=umh / subme=10 / psy=1 / psy_rd=1.00:0.20 / mixed_ref=1 / me_range=32 / chroma_me=1 / trellis=2 / 8x8dct=1 / cqm=0 / deadzone=21,11 / fast_pskip=1 / chroma_qp_offset=-3 / threads=12 / lookahead_threads=8 / sliced_threads=0 / nr=0 / decimate=1 / interlaced=0 / bluray_compat=0 / constrained_intra=0 / bframes=11 / b_pyramid=2 / b_adapt=2 / b_bias=0 / direct=1 / weightb=1 / open_gop=0 / weightp=2 / keyint=250 / keyint_min=25 / scenecut=40 / intra_refresh=0 / rc=2pass / mbtree=0 / bitrate=4000 / ratetol=1.0 / qcomp=0.60 / qpmin=0 / qpmax=69 / qpstep=4 / cplxblur=20.0 / qblur=0.5 / ip_ratio=1.40 / pb_ratio=1.30 / aq=3:1.00
Default : Нет
Forced : Нет
Цветовой диапазон : Limited
Основные цвета : BT.709
Характеристики трансфера : BT.709
Коэффициенты матрицы : BT.709

Аудио
Идентификатор : 2
Формат : AC-3
Формат/Информация : Audio Coding 3
Коммерческое название : Dolby Digital
Идентификатор кодека : A_AC3
Продолжительность : 2 ч. 21 м.
Вид битрейта : Постоянный
Битрейт : 192 Кбит/сек
Каналы : 2 канала
ChannelLayout : L R
Частота : 48,0 КГц
Частота кадров : 31,250 кадров/сек (1536 SPF)
Битовая глубина : 16 бит
Метод сжатия : С потерями
Размер потока : 194 Мбайт (5%)
Язык : Russian
ServiceKind/String : Complete Main
Default : Да
Forced : Да








   Похожие торренты   Торрент   Размер 
В этой теме нет новых непрочитанных сообщений. Никогда не говори «никогда» / Табу (1-8 серии из 8) (Александр Кананович) [2018, драма, музыка, HDTVRip]

34 | 9

5.3 ГБ

В этой теме нет новых непрочитанных сообщений. Никогда не говори «никогда» / Табу (1-8 серии из 8) (Александр Кананович) [2018, драма, музыка, HDTVRip-AVC]

56 | 14

6.46 ГБ

В этой теме нет новых непрочитанных сообщений. Никогда не говори «никогда» / Табу (1-3 серии из 8) (Александр Кананович) [2018, драма, музыка, SATRip]

57 | 4

1.87 ГБ

В этой теме нет новых непрочитанных сообщений. Никогда не говори «никогда» / Табу (1-6 серии из 8) (Александр Кананович) [2018, драма, музыка, SATRip]

90 | 25

3.73 ГБ

В этой теме нет новых непрочитанных сообщений. Никогда не говори «никогда» / Табу (1-9 серии из 9) (Александр Кананович) [2018, драма, музыка, SATRip]

219 | 101

5.6 ГБ

В этой теме нет новых непрочитанных сообщений. Папаньки (1-8 серии из 16) /(Ирина Васильева (II), Александр Кананович) [2018, комедия, WEB-DL 720p]

5 | 3

5.82 ГБ

В этой теме нет новых непрочитанных сообщений. Папаньки (1-12 серии из 16) /(Ирина Васильева (II), Александр Кананович) [2018, комедия, WEB-DL 720p]

6 | 8

8.61 ГБ




Вы не можете начинать темы
Вы не можете отвечать на сообщения
Вы не можете редактировать свои сообщения
Вы не можете удалять свои сообщения
Вы не можете добавлять вложения

Перейти:  
 Вход
ppkBB3cker v.2 © 2008-2014 @ PPK
[ Time : 0.052s | 17 Queries | GZIP : Off ]

cron