img image001 image001 image001 image001 image001 image001 image001 image001 image001 image001 image001 image001 image001 image001 image001 image001

Planets Sun Sun Sun
Статистика раздачи
Автор: Снежана | Размер: 9.79 ГБ | Добавлен: 13 май 2019
Раздают: 12    Качают: 9
Скачать торрент
Скачать торрент
Описание торрента

СообщениеДобавлено: 13 май 2019 

Райский уголок / Посёлок


Перевод: Не требуется, субтитры: отсутствуют
Формат: WEBRip 1080р, MKV, H.264, AC3
Страна: Россия
Режиссер: Александр Созонов
Жанр: Мелодрама
Всего серий: 8
Продолжительность: 8 х ~ 00:50:00
Год выпуска: 2016

В ролях: Таисия Вилкова, Александр Зарядин, Антон Васильев (III), Максим Битюков, Елена Валюшкина, Елена Осипова (II), Вадим Цаллати, Сергей Муравьёв, Екатерина Молоховская, Вячеслав Чепурченко, Александра Назарова, Алина Гвасалия, Антон Афанасьев, Георгий Громов, Янина Хачатурова, Светлана Дикаанидас, Дмитрий Комов, Наталия Калашник, Мирослава Михайлова, Наталья Рычкова, Игорь Бычков, Евгения Лютая, Дарья Киричек, Владимир Старостин, Светлана Йозефий, Юлия Полынская, Вячеслав Беляев, Виктор Барченко, Вера Шпак, Дария Гомес, Алексей Лагутин, Маруся Климова, Дарья Пугачева, Елизавета Лотова, Ольга Родина, Анна Касаткина-Барац

Описание: В элитном коттеджном поселке «Райский уголок» царят мир и покой. Вера, молодая девушка из Белоруссии, устраивается в один из особняков домработницей. На самом деле ее истинный мотив - найти пропавшую подругу Лесю, уехавшую полгода сюда назад на заработки. Поначалу Вере кажется невозможным, что в этом тихом и уютном местечке кто-то мог причинить зло ее подруге. Но вскоре она понимает – за каждым из добротных фасадов окрестных домов скрывается тайна, узнав которую, Леся могла поплатиться жизнью...



Видео: 1920x1080 (16:9), 25 fps, AVC MPEG-4 (x264), High@L4, ~ 3207 kbps, 0.062 bit/pixel
Аудио: 44,1 kHz, AC3, 2/0 (L,R) ch, ~192 kbps avg


Общее
Уникальный идентификатор : 209338001589482538404390511783129237276 (0x9D7D0856E586D8DF9A73C6790215C71C)
Полное имя : I:\Rayskiy.ugolok.2016.WEB-DL.(1080р).Kinozal-Reliz.by.Olyanchik\01.Rayskiy.ugolok.2016.WEB-DL.(1080р).Kinozal-Reliz.by.Olyanchik.mkv
Формат : Matroska
Версия формата : Version 4 / Version 2
Размер файла : 1,20 Гбайт
Продолжительность : 50 м. 20 с.
Общий поток : 3401 Кбит/сек
Дата кодирования : UTC 2019-02-25 11:24:25
Программа кодирования : mkvmerge v9.6.0 (''Slave To Your Mind'') 64bit
Библиотека кодирования : libebml v1.3.4 + libmatroska v1.4.5

Видео
Идентификатор : 1
Формат : AVC
Формат/Информация : Advanced Video Codec
Профиль формата : High@L4
Параметр CABAC формата : Да
Параметр ReFrames формата : 3 кадра
Идентификатор кодека : V_MPEG4/ISO/AVC
Продолжительность : 50 м. 20 с.
Битрейт : 3207 Кбит/сек
Ширина : 1920 пикселей
Высота : 1080 пикселей
Соотношение сторон : 16:9
Режим частоты кадров : Постоянный
Частота кадров : 25,000 кадров/сек
Цветовое пространство : YUV
Субдискретизация насыщенности : 4:2:0
Битовая глубина : 8 бит
Тип развёртки : Прогрессивная
Бит/(Пиксели*Кадры) : 0.062
Размер потока : 1,13 Гбайт (94%)
Default : Да
Forced : Нет
Цветовой диапазон : Limited
Основные цвета : BT.709
Характеристики трансфера : BT.709
Коэффициенты матрицы : BT.709

Аудио
Идентификатор : 2
Формат : AC-3
Формат/Информация : Audio Coding 3
Параметр Endianness формата : Big
Идентификатор кодека : A_AC3
Продолжительность : 50 м. 20 с.
Вид битрейта : Постоянный
Битрейт : 192 Кбит/сек
Каналы : 2 канала
Расположение каналов : Front: L R
Частота : 44,1 КГц
Частота кадров : 28,711 кадров/сек (1536 spf)
Битовая глубина : 16 бит
Метод сжатия : С потерями
Размер потока : 69,1 Мбайт (6%)
ServiceKind/String : Complete Main
Default : Да
Forced : Нет







   Похожие торренты   Торрент   Размер 
В этой теме нет новых непрочитанных сообщений. Райский уголок / Посёлок (1-4 серии из 8) (Александр Созонов ) [2016, Мелодрама, WEBRip 1080р]

10 | 1

4.84 ГБ

В этой теме нет новых непрочитанных сообщений. Райский уголок / Посёлок (1-3 серии из 8) (Александр Созонов ) [2016, Мелодрама, WEBRip 1080р]

0 | 0

3.6 ГБ

В этой теме нет новых непрочитанных сообщений. Райский уголок / Посёлок (1-8 серии из 8) (Александр Созонов) [2016, мелодрама, WEBRip-AVC]

14 | 1

5.03 ГБ

В этой теме нет новых непрочитанных сообщений. Райский уголок / Посёлок (1-3 серии из 8) (Александр Созонов) [2016, мелодрама, WEBRip]

0 | 0

1.9 ГБ

В этой теме нет новых непрочитанных сообщений. Райский уголок / Посёлок (1-2 серии из 8) (Александр Созонов) [2016, мелодрама, WEBRip-AVC]

12 | 2

1.26 ГБ

В этой теме нет новых непрочитанных сообщений. Райский уголок / Посёлок (1-2 серии из 8) (Александр Созонов) [2016, мелодрама, WEBRip]

0 | 0

1.27 ГБ

В этой теме нет новых непрочитанных сообщений. Райский уголок / Посёлок (1-4 серии из 8) (Александр Созонов) [2016, мелодрама, WEBRip-AVC]

14 | 5

2.51 ГБ




Вы не можете начинать темы
Вы не можете отвечать на сообщения
Вы не можете редактировать свои сообщения
Вы не можете удалять свои сообщения
Вы не можете добавлять вложения

Перейти:  
cron
 Вход
ppkBB3cker v.2 © 2008-2014 @ PPK
[ Time : 0.044s | 16 Queries | GZIP : Off ]

cron