img image001 image001 image001 image001 image001 image001 image001 image001 image001 image001 image001 image001 image001 image001 image001 image001

Planets Sun Sun Sun
Статистика раздачи
Автор: Снежана | Размер: 12.47 ГБ | Добавлен: 13 май 2019
Раздают: 22    Качают: 14
Скачать торрент
Скачать торрент
Описание торрента

СообщениеДобавлено: 13 май 2019 

Подсудимый (1-16 серии из 16)

Перевод: Не требуется, cубтитры: отсутствуют
Формат: HDTVRip-AVC, MKV, H.264, AC3
Страна: Россия
Режиссер: Максим Бриус
Жанр: детектив, триллер, драма
Всего серий: 16
Продолжительность: 16 x ~ 00:46:04
Год выпуска: 2019

В ролях: Дмитрий Паламарчук, Пётр Рыков, Алиса Горшкова, Владимир Литвинов, Андрей Терентьев, Сергей Яценюк, Эльпида Калайчева, Николай Цонку, Андрей Бабенко, Алексей Серов, Вячеслав Дусенко, Николай Белин, Александр Рыбаков, Андрей Марусин, Игорь Денисов, Мария Русских, Владимир Чернышов, Линда Лазарева, Вадим Бурлаков, Артур Харитоненко, Артур Мкртчян, Андрей Аладьин, Виталий Бисеров, Василий Шевцов, Александр Кудренко, Елизавета Фалилеева (II), Андрей Сидельников, Константин Захаров (II), Игорь Алексеев, Антон Гуляев, Елена Вожакина, Наталья Мартынова, Василий Щипицын, Ольга Битюкова, Майя Бисерова, Игорь Бессчастнов, Игорь Бедных, Илья Морозов (II), Исса Дауров, Влада Карпова, Хельга Филиппова, Виктор Смоляр, Константин Бараев, Пётр Терещенко, Ольга Богданова, Александр Кладько, Марк Овчинников, Алёна Митюшкина, Евгения Гришина, Ксения Ирхина, Олег Сенченко, Амин Хуратов, Алексей Иванов (IX), Роман Рольбин, Юрий Ковалёв, Екатерина Рокотова, Александр Кошкарёв, Инесса Перелыгина-Владимирова, Алексей Перепелкин, Александр Бургомистров, Ксения Пацинская, Руслан Китайгородский, Сергей Мосьпан, Татьяна Валентинова, Юлия Нижельская, Михаил Бондарук, Ярослав Пальков, Владимир Карпов (III), Павел Исайкин, Данила Воропаев

Описание: Следователь СК Андрей Климов считает главной целью не рутинную «бумажную» работу в качестве коррумпированного чиновника, а разоблачение преступников вне зависимости от их финансового положения и статуса в обществе. У Климова дружная семья: любимая жена и красавица-дочка. Но, однажды уснув у себя дома, он просыпается в тюремной камере: его обвиняют в убийстве жены и дочери. Между последними воспоминаниями и этим днём прошло четыре месяца, которые полностью стёрты из его памяти. Единственное, что помнит Климов – это то, что он приступил к расследованию дела о гибели президента солидной компании, в убийстве которого подозревал его брата-близнеца.

Рейтинг и доп. информация:


Видео: 1024x576, (16:9), 25 fps, AVC MPEG-4 (x264), ~ 2110 kbps , 0.143 bit/pixel
Аудио: 48 kHz, АС3, 2/0 (L,R), ~192.00 kbps avg
Общее
Уникальный идентификатор : 216854722870068518292120757378219622313 (0xA324B34FC178562C80302D1D3299BFA9)
Полное имя : C:\Подсудимый.2019.HDTVRip (AVC)\01.Подсудимый.2019.HDTVRip (AVC).mkv
Формат : Matroska
Версия формата : Version 2
Размер файла : 837 Мбайт
Продолжительность : 50 м. 49 с.
Общий поток : 2304 Кбит/сек
Дата кодирования : UTC 2019-04-29 10:36:55
Программа кодирования : mkvmerge v6.9.1 (''Blue Panther'') 32bit built on Apr 18 2014 18:15:44
Библиотека кодирования : libebml v1.3.0 + libmatroska v1.4.1

Видео
Идентификатор : 1
Формат : AVC
Формат/Информация : Advanced Video Codec
Профиль формата :
Настройки формата : CABAC / 11 Ref Frames
Параметр CABAC формата : Да
Параметр RefFrames формата : 11 кадров
Идентификатор кодека : V_MPEG4/ISO/AVC
Продолжительность : 50 м. 49 с.
Битрейт : 2110 Кбит/сек
Ширина : 1024 пикселя
Высота : 576 пикселей
Соотношение сторон : 16:9
Режим частоты кадров : Постоянный
Частота кадров : 25,000 кадров/сек
Цветовое пространство : YUV
Субдискретизация насыщенности : 4:2:0
Битовая глубина : 8 бит
Тип развёртки : Прогрессивная
Бит/(Пиксели*Кадры) : 0.143
Размер потока : 751 Мбайт (90%)
Библиотека кодирования : x264 core 148 r2638 7599210
Настройки программы : cabac=1 / ref=11 / deblock=1:-1:-1 / analyse=0x3:0x133 / me=umh / subme=9 / psy=1 / psy_rd=1.00:0.10 / mixed_ref=1 / me_range=16 / chroma_me=1 / trellis=2 / 8x8dct=1 / cqm=0 / deadzone=21,11 / fast_pskip=0 / chroma_qp_offset=-3 / threads=6 / lookahead_threads=1 / sliced_threads=0 / nr=0 / decimate=1 / interlaced=0 / bluray_compat=0 / constrained_intra=0 / bframes=2 / b_pyramid=2 / b_adapt=2 / b_bias=0 / direct=3 / weightb=1 / open_gop=0 / weightp=2 / keyint=250 / keyint_min=25 / scenecut=40 / intra_refresh=0 / rc_lookahead=50 / rc=2pass / mbtree=1 / bitrate=2110 / ratetol=1.0 / qcomp=0.60 / qpmin=0 / qpmax=69 / qpstep=4 / cplxblur=20.0 / qblur=0.5 / ip_ratio=1.40 / aq=1:1.00
Default : Да
Forced : Нет

Аудио
Идентификатор : 2
Формат : AC-3
Формат/Информация : Audio Coding 3
Коммерческое название : Dolby Digital
Идентификатор кодека : A_AC3
Продолжительность : 50 м. 49 с.
Вид битрейта : Постоянный
Битрейт : 192 Кбит/сек
Каналы : 2 канала
ChannelLayout : L R
Частота : 48,0 КГц
Частота кадров : 31,250 кадров/сек (1536 SPF)
Битовая глубина : 16 бит
Метод сжатия : С потерями
Размер потока : 69,8 Мбайт (8%)
ServiceKind/String : Complete Main
Default : Да
Forced : Нет










   Похожие торренты   Торрент   Размер 
В этой теме нет новых непрочитанных сообщений. Подсудимый (1-7 серии из 16) (Максим Бриус) [2019, детектив, триллер, драма, HDTVRip-AVC]

2 | 0

5.46 ГБ

В этой теме нет новых непрочитанных сообщений. Подсудимый (1-10 серии из 16) (Максим Бриус) [2019, детектив, триллер, драма, HDTVRip]

13 | 6

6.24 ГБ

В этой теме нет новых непрочитанных сообщений. Подсудимый (1-16 серии из 16) (Максим Бриус) [2019, детектив, триллер, драма, HDTVRip]

98 | 50

9.96 ГБ

В этой теме нет новых непрочитанных сообщений. Подсудимый (1-6 серии из 16) (Максим Бриус) [2019, детектив, триллер, драма, WEBRip-AVC]

0 | 0

4.47 ГБ

В этой теме нет новых непрочитанных сообщений. Подсудимый (1-2 серии из 16) (Максим Бриус) [2019, детектив, триллер, драма, WEBRip]

21 | 7

1.22 ГБ

В этой теме нет новых непрочитанных сообщений. Подсудимый (1-16 серии из 16) (Максим Бриус) [2019, детектив, триллер, драма, SATRip-AVC]

43 | 16

9.68 ГБ

В этой теме нет новых непрочитанных сообщений. Подсудимый (1-10 серии из 16) (Максим Бриус) [2019, детектив, триллер, драма, SATRip]

78 | 30

5.86 ГБ




Вы не можете начинать темы
Вы не можете отвечать на сообщения
Вы не можете редактировать свои сообщения
Вы не можете удалять свои сообщения
Вы не можете добавлять вложения

Перейти:  
 Вход
ppkBB3cker v.2 © 2008-2014 @ PPK
[ Time : 0.049s | 15 Queries | GZIP : Off ]

cron