img image001 image001 image001 image001 image001 image001 image001 image001 image001 image001 image001 image001 image001 image001 image001 image001

Planets Sun Sun Sun
Статистика раздачи
Автор: PriZraK | Размер: 3.74 ГБ | Добавлен: 15 фев 2014
Раздают: 9    Качают: 2
Скачать торрент
Скачать торрент
Описание торрента

СообщениеДобавлено: 15 фев 2014 

Информация о фильме
Название: National Geographic. Медузы-монстры
Оригинальное название: National Geographic. Monster Jellyfish
Год выхода: 2010
Жанр: Документальный
Режиссер: Джесс Стрен

О фильме:
Медуза намура, одна из самых крупных в мире. Эти медузы могут достигать свыше 2 метров в диаметре при весе более 200 кг. Океанские течения носили их ещё до появления динозавров. у них нет ни крови, ни костей, ни мозга. Миллиарды этих существ направляются в японские воды. их громадные тела изящно плывут в океанских водах. Но эти медузы разрушают экосистемы и убивают местную рыболовную промышленность. Никто не знает почему увеличивается популяция медуз намура. Виновато глобальное потепление или загрязнение человеком окружающей среды. Большие косяки, ранее появлявшиеся раз в 40 лет, теперь одолевают каждый сезон. Можно ли научными средствами оградить океан от нашествия медуз? Этот вид слишком живуч.
Страна: США
Студия: National Geographic Channel, Off The Fence, MDA
Продолжительность: 00:45:02
Перевод: Дублированный

Файл
Кодек: x264
Качество: HDTVRip 1080p
Видео: MPEG-4 AVC, 11500 Кбит/с, 1920x1072, 25.000 кадр/с
Звук: Русский (AC3, 2 ch, 384 Кбит/с)

Семпл
Формат : Matroska
Версия формата : Version 2
Размер файла : 3,74 Гбайт
Продолжительность : 45 м.
Общий поток : 11,9 Мбит/сек
Название фильма : Release for MediaClub by AlexAndr92
Дата кодирования : UTC 2013-10-03 16:04:23
Программа кодирования : mkvmerge v4.0.0 ('The Stars were mine') сборка от Jun 6 2010 16:18:42
Библиотека кодирования : libebml v1.0.0 + libmatroska v1.0.0

Видео
Идентификатор : 1
Формат : AVC
Формат/Информация : Advanced Video Codec
Профиль формата : High@L4.1
Параметр CABAC формата : Да
Параметр ReFrames формата : 4 кадра
Идентификатор кодека : V_MPEG4/ISO/AVC
Продолжительность : 45 м.
Битрейт : 11,5 Мбит/сек
Ширина : 1920 пикселей
Высота : 1072 пикселя
Соотношение сторон : 16:9
Режим частоты кадров : Постоянный
Частота кадров : 25,000 кадров/сек
Цветовое пространство : YUV
Субдискретизация насыщенности : 4:2:0
Битовая глубина : 8 бит
Тип развёртки : Прогрессивная
Бит/(Пиксели*Кадры) : 0.223
Размер потока : 3,54 Гбайт (95%)
Библиотека кодирования : x264 core 130 r2273 b3065e6
Настройки программы : cabac=1 / ref=4 / deblock=1:-1:-1 / analyse=0x3:0x133 / me=umh / subme=11 / psy=1 / psy_rd=1.00:0.15 / mixed_ref=1 / me_range=32 / chroma_me=1 / trellis=2 / 8x8dct=1 / cqm=0 / deadzone=21,11 / fast_pskip=0 / chroma_qp_offset=-3 / threads=6 / lookahead_threads=1 / sliced_threads=0 / nr=0 / decimate=0 / interlaced=0 / bluray_compat=0 / constrained_intra=0 / bframes=8 / b_pyramid=2 / b_adapt=2 / b_bias=0 / direct=3 / weightb=1 / open_gop=0 / weightp=2 / keyint=250 / keyint_min=25 / scenecut=40 / intra_refresh=0 / rc=2pass / mbtree=0 / bitrate=11500 / ratetol=1.0 / qcomp=0.60 / qpmin=0 / qpmax=69 / qpstep=4 / cplxblur=20.0 / qblur=0.5 / ip_ratio=1.40 / pb_ratio=1.30 / aq=1:1.00
Default : Нет
Forced : Нет

Аудио
Идентификатор : 2
Формат : AC-3
Формат/Информация : Audio Coding 3
Расширение режима : CM (complete main)
Параметр Endianness формата : Big
Идентификатор кодека : A_AC3
Продолжительность : 45 м.
Вид битрейта : Постоянный
Битрейт : 384 Кбит/сек
Каналы : 2 канала
Расположение каналов : Front: L R
Частота : 48,0 КГц
Битовая глубина : 16 бит
Метод сжатия : С потерями
Размер потока : 124 Мбайт (3%)
Default : Нет
Forced : Нет




Релиз от: | AlexAndr92



   Похожие торренты   Торрент   Размер 
В этой теме нет новых непрочитанных сообщений. Запреты. National Geographic / Taboo. National Geographic [s01-09 55 фильмов] (2002-2012) SATRip от MediaClub | КПК

5 | 201

11.09 ГБ

В этой теме нет новых непрочитанных сообщений. National Geographic. Место жительства - Марс / Заселение Марса / National Geographic: Living on Mars (2009) HDTVRip от -=HD-NET=-

75 | 23

613.08 МБ

В этой теме нет новых непрочитанных сообщений. National Geographic. Дикая Австралия / National Geographic. Wild Australia [Серии 1, 3, 4 из 4] (2014) HDTVRip от HitWay | D

85 | 24

1.58 ГБ

В этой теме нет новых непрочитанных сообщений. National Geographic: Игры разума / National Geographic. Brain Games [S03х01-10] (2013) HDTVRip от GeneralFilm

1114 | 241

2.42 ГБ

В этой теме нет новых непрочитанных сообщений. National Geographic. Реальность или фантастика? / National Geographic. Is it Real? [Серии 1-15] (2005-2007) HDTVRip от HitWay | P1

561 | 152

9.88 ГБ




Вы не можете начинать темы
Вы не можете отвечать на сообщения
Вы не можете редактировать свои сообщения
Вы не можете удалять свои сообщения
Вы не можете добавлять вложения

Перейти:  
Регистрация  Вход
ppkBB3cker v.2 © 2008-2014 @ PPK
[ Time : 0.023s | 16 Queries | GZIP : Off ]

cron