img image001 image001 image001 image001 image001 image001 image001 image001 image001 image001 image001 image001 image001 image001 image001 image001

Planets Sun Sun Sun
Статистика раздачи
Автор: Снежана | Размер: 691.16 МБ | Добавлен: 03 янв 2019
Раздают: 6    Качают: 7
Скачать торрент
Скачать торрент
Описание торрента

СообщениеДобавлено: 03 янв 2019 

Оригинальное название: Полигон
Год выпуска: 2018
Жанр: Документальный, военный
Выпущено: Россия, ООО "Единая медиа группа"
В ролях: Иван Лебедев, Дмитрий Задорожный, Алексей Громыко
О фильме: Одна из самых ожидаемых премьер этого телесезона - программа о современных военных разработках, новейших видах вооружения, средствах ведения боя и индивидуальной защиты! Российская армия сегодня – это не только автомат Калашникова и самолеты Сухого. Инновационные разработки военно-промышленного комплекса открывают практически безграничные возможности. Однако гражданским лицам о них известно крайне мало. Чтобы восполнить этот пробел, ведущие телеканала "Россия 2" Иван Лебедев и Дмитрий Задорожный отправляются на настоящие военные полигоны. В "боевых условиях" они попытаются выяснить, как устроены и работают современные бронеавтомобили и снайперские винтовки, ударные вертолеты и боевые корабли. С любознательностью новобранцев они будут рассматривать каждый винтик и интересоваться его предназначением, а также проводить тест-драйвы, ставить рискованные опыты и бесшабашные эксперименты. В этой программе не будет кирзовых сапог и строевой подготовки. Зато будет все то, о чем каждый настоящий мужчина мечтает с раннего детства – много оружия и грозной военной техники.
Качество: WEB-DLRip
Видео: XviD build 73, 1550 Кбит/с, 720x400, 25 fps, 0.200 bit/pixel
Аудио: AC3, 2 ch, 192 Кбит/с
Продолжительность: 2 x ~ 00:25:00
Перевод: Не требуется
Субтитры: нет

General
Complete name : D:RazdachiPoligon.s02.XviD.HDTVRip.by.GeneralFilms02.e01.Malye.Raketnye.Korabli.avi
Format : AVI
Format/Info : Audio Video Interleave
File size : 343 MiB
Duration : 26 min 46 s
Overall bit rate : 1 789 kb/s
Writing application : VirtualDubMod 1.5.10.3 | www.virtualdub-fr.org || (build 2550/release)
Writing library : VirtualDubMod build 2550/release
Video
ID : 0
Format : MPEG-4 Visual
Format profile : Advanced Simple@L5
Format settings, BVOP : 1
Format settings, QPel : No
Format settings, GMC : No warppoints
Format settings, Matrix : Custom
Codec ID : XVID
Codec ID/Hint : XviD
Duration : 26 min 46 s
Bit rate : 1 587 kb/s
Width : 720 pixels
Height : 400 pixels
Display aspect ratio : 16:9
Frame rate : 25.000 FPS
Color space : YUV
Chroma subsampling : 4:2:0
Bit depth : 8 bits
Scan type : Progressive
Compression mode : Lossy
Bits/(Pixel*Frame) : 0.220
Stream size : 304 MiB (89%)
Writing library : XviD 73
Audio
ID : 1
Format : AC-3
Format/Info : Audio Coding 3
Format settings, Endianness : Big
Codec ID : 2000
Duration : 26 min 46 s
Bit rate mode : Constant
Bit rate : 192 kb/s
Channel(s) : 2 channels
Channel positions : Front: L R
Sampling rate : 48.0 kHz
Frame rate : 31.250 FPS (1536 SPF)
Bit depth : 16 bits
Compression mode : Lossy
Delay relative to video : 16 ms
Stream size : 36.8 MiB (11%)
Alignment : Split accross interleaves
Interleave, duration : 40 ms (1.00 video frame)
Interleave, preload duratio : 500 ms
Service kind : Complete Main

Релиз от:



   Похожие торренты   Торрент   Размер 
В этой теме нет новых непрочитанных сообщений. Discovery. Сокровище Купера / Cooper's Treasure [02x01] (2018) HDTVRip от GeneralFilm | P2

0 | 0

656.68 МБ

В этой теме нет новых непрочитанных сообщений. Discovery. Сокровище Купера / Cooper's Treasure [02x01] (2018) HDTVRip 720p от GeneralFilm | P2

0 | 0

1.34 ГБ




Вы не можете начинать темы
Вы не можете отвечать на сообщения
Вы не можете редактировать свои сообщения
Вы не можете удалять свои сообщения
Вы не можете добавлять вложения

Перейти:  
Регистрация  Вход
ppkBB3cker v.2 © 2008-2014 @ PPK
[ Time : 0.018s | 15 Queries | GZIP : Off ]

cron