img image001 image001 image001 image001 image001 image001 image001 image001 image001 image001 image001 image001 image001 image001 image001 image001

Planets Sun Sun Sun
Статистика раздачи
Автор: Снежана | Размер: 2.52 ГБ | Добавлен: 03 янв 2019
Раздают: 18    Качают: 4
Скачать торрент
Скачать торрент
Описание торрента

СообщениеДобавлено: 03 янв 2019 

Информация о фильме
Название: Дикие места Ирана
Оригинальное название: Iran's Wild Side
Год выхода: 2018
Жанр: Документальный, флора, фауна
Режиссер: Мани Мирсадеги
О фильме:
От жарких засушливых пустынь и зыбучих песков до захватывающих дух снежных гор и их уникальных обитателей, пышной зелени мангровых зарослей и их необычных существ. Иран это земля, окутанная тайнами и крайностями.
Страна: Канада
Студия: MANI FILM, INC, for NATIONAL GEOGRAPHIC
Продолжительность: ~ 00:44:00
Перевод: Профессиональный (одноголосый закадровый) студия Велес
Файл
Кодек: AVC/H.264
Качество: HDTV 1080i
Видео: 1920x1080 (16:9), 25 fps, AVC (x264), Main@L4, ~ 7837 kbps, 25fps, 0.151 bit/pixel
Звук: Русский 48 kHz, MPEG Layer 2, 2 ch, ~192.00 kbps avg
Семпл
Complete name : F:НаладкиДикие места Ирана.mkv
Format : Matroska
Format version : Version 4 / Version 2
File size : 2.52 GiB
Duration : 43 min 58 s
Overall bit rate : 8 192 kb/s
Encoded date : UTC 2018-12-31 10:34:48
Writing application : mkvmerge v6.6.0 ('The Edge Of The In Between') built on Dec 1 2013 17:55:00
Writing library : libebml v1.3.0 + libmatroska v1.4.1
Video
ID : 1
Format : AVC
Format/Info : Advanced Video Codec
Format profile : Main@L4
Format settings : CABAC / 3 Ref Frames
Format settings, CABAC : Yes
Format settings, ReFrames : 3 frames
Codec ID : V_MPEG4/ISO/AVC
Duration : 43 min 58 s
Bit rate : 7 837 kb/s
Width : 1 920 pixels
Height : 1 080 pixels
Display aspect ratio : 16:9
Frame rate mode : Constant
Frame rate : 25.000 FPS
Color space : YUV
Chroma subsampling : 4:2:0
Bit depth : 8 bits
Scan type : Interlaced
Scan type, store method : Separated fields
Scan order : Top Field First
Bits/(Pixel*Frame) : 0.151
Stream size : 2.41 GiB (96%)
Default : Yes
Forced : No
Color range : Limited
Color primaries : BT.709
Transfer characteristics : BT.709
Matrix coefficients : BT.709
Audio
ID : 2
Format : MPEG Audio
Format version : Version 1
Format profile : Layer 2
Codec ID : A_MPEG/L2
Codec ID/Hint : MP2
Duration : 43 min 58 s
Bit rate mode : Constant
Bit rate : 192 kb/s
Channel(s) : 2 channels
Sampling rate : 48.0 kHz
Compression mode : Lossy
Stream size : 60.4 MiB (2%)
Language : Russian
Default : Yes
Forced : No

Релиз от: kyba



   Похожие торренты   Торрент   Размер 
В этой теме нет новых непрочитанных сообщений. Nat Geo Wild: Дикие места Африки. Рожденные выживать / Africa's Wild Side (2018) HDTV 1080i | P1

0 | 0

2.21 ГБ

В этой теме нет новых непрочитанных сообщений. Nat Geo Wild: Дикие места Африки. Битва полов / Africa's Wild Side (2018) HDTV 1080i | P1

6 | 0

2.21 ГБ

В этой теме нет новых непрочитанных сообщений. Nat Geo Wild: Дикие места Африки. Величайшие архитекторы природы / Africa's Wild Side (2018) HDTV 1080i | P1

15 | 0

2.21 ГБ

В этой теме нет новых непрочитанных сообщений. Nat Geo Wild: Дикие места Африки. Рожденные выживать / Africa's Wild Side (2018) HDTVRip | P1

0 | 0

629.89 МБ

В этой теме нет новых непрочитанных сообщений. Nat Geo Wild: Дикие места Африки. Рожденные выживать / Africa's Wild Side (2018) HDTVRip-AVC | P1

8 | 0

1004.99 МБ

В этой теме нет новых непрочитанных сообщений. Nat Geo Wild: Дикие места Африки. Битва полов / Africa's Wild Side (2018) HDTVRip | P1

0 | 0

630.18 МБ

В этой теме нет новых непрочитанных сообщений. Nat Geo Wild: Дикие места Африки. Битва полов / Africa's Wild Side (2018) HDTVRip-AVC | P1

0 | 0

1005.34 МБ




Вы не можете начинать темы
Вы не можете отвечать на сообщения
Вы не можете редактировать свои сообщения
Вы не можете удалять свои сообщения
Вы не можете добавлять вложения

Перейти:  
 Вход
ppkBB3cker v.2 © 2008-2014 @ PPK
[ Time : 0.019s | 16 Queries | GZIP : Off ]

cron