img image001 image001 image001 image001 image001 image001 image001 image001 image001 image001 image001 image001 image001 image001 image001 image001

Planets Sun Sun Sun
Статистика раздачи
Автор: Снежана | Размер: 790.21 МБ | Добавлен: 24 июл 2013
Раздают: 5    Качают: 3
Скачать торрент
Скачать торрент
Описание торрента

СообщениеДобавлено: 24 июл 2013 

#77

Год выпуска: 2011
Страна: США
Жанр: Документальный
Продолжительность: 00:47:58
Перевод: Профессиональный (одноголосый)
Русские субтитры: нет

Описание:
Она до смерти напугала весь мир. Белая акула - чудовище, хватающее мужчин, женщин, детей. Прошел не один десяток лет, а страх остался как и акулы, скрывающиеся в темноте. Они ждут, ищут, подкрадываются. Где бы вы не зашли в воду, возможно акулы уже там. У всех у них имеется общая черта - любовь к крови...

Доп. информация: Последние 10 мин без перевода

Качество: HDTVRip (исходник HDTVRip 720p)
Формат:AVI
Видео кодек: XviD
Аудио кодек: MP3
Видео: 16:9, 2099 Кбит/сек, 720x400, 29,970 кадров/сек
Аудио: MP3, 2 канала, 192 Кбит/сек, 48,0 КГц



Общее
Полное имя : D:Samye.opasnye.akuly.2011.avi
Формат : AVI
Формат/Информация : Audio Video Interleave
Размер файла : 790 Мбайт
Продолжительность : 47 м.
Общий поток : 2303 Кбит/сек
Программа кодирования : VirtualDubMod 1.5.10.3 | www.virtualdub-fr.org || (build 2550/release)
Библиотека кодирования : VirtualDubMod build 2550/release

Видео
Идентификатор : 0
Формат : MPEG-4 Visual
Профиль формата : Advanced Simple@L5
Параметр BVOP формата : 2
Параметр QPel формата : Нет
Параметр GMC формата : Без точки перехода
Параметр матрицы формата : Default (H.263)
Режим смешивания : Сжатый битовый поток
Идентификатор кодека : XVID
Идентификатор кодека/Подсказка : XviD
Продолжительность : 47 м.
Битрейт : 2099 Кбит/сек
Ширина : 720 пикселей
Высота : 400 пикселей
Соотношение сторон : 16:9
Частота кадров : 29,970 кадров/сек
Цветовое пространство : YUV
Субдискретизация насыщенности : 4:2:0
Битовая глубина : 8 бит
Тип развёртки : Прогрессивная
Метод сжатия : С потерями
Бит/(Пиксели*Кадры) : 0.243
Размер потока : 720 Мбайт (91%)
Библиотека кодирования : XviD 1.2.1 (UTC 2008-12-04)

Аудио
Идентификатор : 1
Формат : MPEG Audio
Версия формата : Version 1
Профиль формата : Layer 3
Идентификатор кодека : 55
Идентификатор кодека/Подсказка : MP3
Продолжительность : 47 м.
Вид битрейта : Постоянный
Битрейт : 192 Кбит/сек
Каналы : 2 канала
Частота : 48,0 КГц
Метод сжатия : С потерями
Размер потока : 65,9 Мбайт (8%)
Выравнивание : Соединение по промежуткам
Продолжительность промежутка : 33 мс. (1,00 видеокадр)
Время предзагрузки промежутка : 504 мс.
Библиотека кодирования : LAME3.99r
Настройки программы : -m s -V 4 -q 2 -lowpass 18.6 -b 192

Релиз от: R.G.RealMT



   Похожие торренты   Торрент   Размер 
В этой теме нет новых непрочитанных сообщений. National Geographic: Хищники Африки / National Geographic: Africa's Deadliest [01-03 из 03] (2011) HDTVRip | D

273 | 12

1.87 ГБ

В этой теме нет новых непрочитанных сообщений. National Geographic. Место жительства - Марс / Заселение Марса / National Geographic: Living on Mars (2009) HDTVRip от -=HD-NET=-

75 | 23

613.08 МБ

В этой теме нет новых непрочитанных сообщений. National Geographic: Атака нильского крокодила / National Geographic: Africa's Croc Attack (2012) HDTVRip от HitWay | P1

56 | 5

552.65 МБ

В этой теме нет новых непрочитанных сообщений. National Geographic: Игры разума / National Geographic. Brain Games [S03х01-10] (2013) HDTVRip от GeneralFilm

1114 | 241

2.42 ГБ

В этой теме нет новых непрочитанных сообщений. National Geographic. Мой музыкальный мозг / National Geographic. The Musical Brain (2009) HDTVRip 1080p MediaClub

6 | 38

3.9 ГБ

В этой теме нет новых непрочитанных сообщений. National Geographic. Реальность или фантастика? / National Geographic. Is it Real? [Серии 1-15] (2005-2007) HDTVRip от HitWay | P1

561 | 152

9.88 ГБ




Вы не можете начинать темы
Вы не можете отвечать на сообщения
Вы не можете редактировать свои сообщения
Вы не можете удалять свои сообщения
Вы не можете добавлять вложения

Перейти:  
Регистрация  Вход
ppkBB3cker v.2 © 2008-2014 @ PPK
[ Time : 0.024s | 15 Queries | GZIP : Off ]

cron