img image001 image001 image001 image001 image001 image001 image001 image001 image001 image001 image001 image001 image001 image001 image001 image001

Planets Sun Sun Sun
Статистика раздачи
Автор: PriZraK | Размер: 6.29 ГБ | Добавлен: 15 фев 2014
Раздают: 23    Качают: 4
Скачать торрент
Скачать торрент
Описание торрента

СообщениеДобавлено: 15 фев 2014 

XXII Зимние Олимпийские игры 2014. Горные лыжи. Скоростной спуск. Мужчины / HD Спорт



Вид спорта: Горные лыжи
Дата/Год выпуска: 09.02.14
Язык комментариев: русский

Автор записи: SashaR.

Качество: DVB-S2 Remux
Формат видео: TS
Видео: AVC, 1920x1080, 16:9, 15.2 Mbps, 25 fps
Аудио: MP2, 192 kbps, 48 kHz, 2 channels
J:ОлимпиадаГорные лыжи. Скоростной спуск. Мужчины (НТВ+).ts
General #6
ID : 6 (0x6)
Complete name : J:ОлимпиадаГорные лыжи. Скоростной спуск. Мужчины (НТВ+).ts
Format : MPEG-TS
File size : 6.29 GiB
Duration : 55mn 34s
Overall bit rate mode : Variable
Overall bit rate : 16.2 Mbps
Video #301
ID : 301 (0x12D)
Menu ID : 17101 (0x42CD)
Format : AVC
Format/Info : Advanced Video Codec
Format profile : High@L4.0
Format settings, CABAC : Yes
Format settings, ReFrames : 3 frames
Codec ID : 27
Duration : 55mn 33s
Bit rate : 15.2 Mbps
Width : 1 920 pixels
Height : 1 080 pixels
Display aspect ratio : 16:9
Frame rate : 25.000 fps
Standard : Component
Color space : YUV
Chroma subsampling : 4:2:0
Bit depth : 8 bits
Scan type : Interlaced
Scan order : Top Field First
Bits/(Pixel*Frame) : 0.293
Stream size : 5.90 GiB (94%)
Color primaries : BT.709
Transfer characteristics : BT.709
Matrix coefficients : BT.709
Audio #401
ID : 401 (0x191)
Menu ID : 17101 (0x42CD)
Format : MPEG Audio
Format version : Version 1
Format profile : Layer 2
Codec ID : 4
Duration : 55mn 34s
Bit rate mode : Constant
Bit rate : 192 Kbps
Channel count : 2 channels
Sampling rate : 48.0 KHz
Compression mode : Lossy
Delay relative to video : 32ms
Stream size : 76.3 MiB (1%)
Language : Russian
Language, more info : Clean effects

00:55:34






   Похожие торренты   Торрент   Размер 
В этой теме нет новых непрочитанных сообщений. XXIII Зимние Олимпийские игры 2018 / Горные лыжи / Мужчины / Скоростной спуск. Тренировка 1 / Eurosport HD [Горные лыжи, 08.02.2018, HDTV (1080i), RU/EN]

0 | 0

8.32 ГБ

В этой теме нет новых непрочитанных сообщений. XXIII Зимние Олимпийские игры 2018 / Горные лыжи / Мужчины / Гигантский слалом / Eurosport HD [Горные лыжи, 18.02.2018, HDTV (1080i), RU/EN]

2 | 0

8.95 ГБ

В этой теме нет новых непрочитанных сообщений. XXIII Зимние Олимпийские игры 2018 / Горные лыжи / Мужчины / Слалом / Eurosport HD [Горные лыжи, 22.02.2018, HDTV (1080i), RU/EN]

0 | 0

6.6 ГБ

В этой теме нет новых непрочитанных сообщений. Горные лыжи. Кубок мира 2017–2018. Бормио (Италия). Мужчины. Скоростной спуск / Eurosport 1 HD [Горные лыжи, 28.12.2017, HDTV (1080i), RU]

0 | 0

5.34 ГБ

В этой теме нет новых непрочитанных сообщений. Горные лыжи. Кубок мира 2017–2018. Бивер-Крик (США). Мужчины. Скоростной спуск / Eurosport 1 HD [Горные лыжи, 02.12.2017, HDTV (1080i), RU]

0 | 0

2.86 ГБ

В этой теме нет новых непрочитанных сообщений. Горные лыжи. Кубок мира 2017–2018. 2-й Этап. Лейк-Луиc (Канада). Мужчины. Скоростной спуск / Eurosport 1 HD [Горные лыжи, 25.11.2017, HDTV (1080i), RU]

0 | 0

1.32 ГБ

В этой теме нет новых непрочитанных сообщений. XXII зимние Олимпийские игры. Бобслей. Мужчины. Четверки. Заезд 3 и 4 [HD Спорт] [23.02] (2014) HDTV 1080i

0 | 3

20.87 ГБ




Вы не можете начинать темы
Вы не можете отвечать на сообщения
Вы не можете редактировать свои сообщения
Вы не можете удалять свои сообщения
Вы не можете добавлять вложения

Перейти:  
Регистрация  Вход
ppkBB3cker v.2 © 2008-2014 @ PPK
[ Time : 0.019s | 16 Queries | GZIP : Off ]

cron