img image001 image001 image001 image001 image001 image001 image001 image001 image001 image001 image001 image001 image001 image001 image001 image001

Planets Sun Sun Sun
Статистика раздачи
Автор: Снежана | Размер: 1022.23 МБ | Добавлен: 15 май 2019
Раздают: 0    Качают: 2
Скачать торрент
Скачать торрент
Описание торрента

СообщениеДобавлено: 15 май 2019 

Тайны Чапман. Кому нужен кривой ствол (Эфир от 14.05.2019)


Перевод: Не требуется, cубтитры: отсутствуют
Формат: WEB-DL 1080р, MP4, AVC, AAC
Страна: Россия
Жанр: документальный
Продолжительность: ~ 00:47:00
Год выпуска: 2019

Ведущая: Анна Чапман

Описание: Документальный цикл - это эксклюзивные интервью, сенсационные факты, громкие разоблачения и истории очевидцев. Авторы цикла дадут ответ на простые, и в то же время сложные вопросы: почему количество природных катастроф за последние годы выросло в несколько раз? Может ли питьевая вода стать причиной глобальной войны? Какие опасности таит в себе здоровый образ жизни? Почему лекарств в аптеках становится всё больше, а пользы от них - всё меньше? За счёт чего и кого богатеют корпорации? Как не попасть в ловушку за собственные деньги?

В выпуске:
Танки из бетона, летающие джипы, авианосцы изо льда и опилок. В рассекреченных документах сотни причудливых боевых машин, кажется подобное лишь неудачное инженерное решение. Но так ли это? Какую роль они сыграли в истории человечества и почему заказы их конструировали на самом деле? Броня из лунной пыли, зачем танки оснащают защитой, в состав которой входит реголит? Не светись, куда пропала боевая радиоактивная техника из Чернобыля? Танк-штопор и металлический ураган, какое оружие поможет захватить другие планеты?


Видео: 1920x1080 (16:9), 25 fps, AVC Baseline@L3, ~2768 Kbps (0.053 bit/pixel)
Аудио: 48 kHz, AAC, 2/0 (L,R) ch, ~192.00 kbps avg

Доп. информация:
Скриншоты взяты с предыдущих выпусков.

Общее
Полное имя : F:\2\Тайны Чапман 14.05.19_WEB-DL 1080р.mp4
Формат : MPEG-4
Профиль формата : Base Media
Идентификатор кодека : isom (isom/iso2/avc1/mp41)
Размер файла : 1015 Мбайт
Продолжительность : 48 м. 15 с.
Общий поток : 2942 Кбит/сек
Программа кодирования : Lavf57.37.101

Видео
Идентификатор : 1
Формат : AVC
Формат/Информация : Advanced Video Codec
Профиль формата : Baseline@L3
Настройки формата : 1 Ref Frames
Параметр CABAC формата : Нет
Параметр RefFrames формата : 1 кадр
Идентификатор кодека : avc1
Идентификатор кодека/Информация : Advanced Video Coding
Продолжительность : 48 м. 15 с.
Битрейт : 2768 Кбит/сек
Ширина : 1920 пикселей
Высота : 1080 пикселей
Соотношение сторон : 16:9
Режим частоты кадров : Постоянный
Частота кадров : 25,000 кадров/сек
Цветовое пространство : YUV
Субдискретизация насыщенности : 4:2:0
Битовая глубина : 8 бит
Тип развёртки : Прогрессивная
Бит/(Пиксели*Кадры) : 0.053
Размер потока : 948 Мбайт (93%)
Библиотека кодирования : x264 core 148 r2694 3b70645
Настройки программы : cabac=0 / ref=1 / deblock=1:0:0 / analyse=0x1:0x111 / me=hex / subme=7 / psy=1 / psy_rd=1.00:0.00 / mixed_ref=0 / me_range=16 / chroma_me=1 / trellis=1 / 8x8dct=0 / cqm=0 / deadzone=21,11 / fast_pskip=1 / chroma_qp_offset=-2 / threads=30 / lookahead_threads=5 / sliced_threads=0 / nr=0 / decimate=1 / interlaced=0 / bluray_compat=0 / constrained_intra=0 / bframes=0 / weightp=0 / keyint=250 / keyint_min=25 / scenecut=40 / intra_refresh=0 / rc_lookahead=40 / rc=abr / mbtree=1 / bitrate=2768 / ratetol=1.0 / qcomp=0.60 / qpmin=0 / qpmax=69 / qpstep=4 / ip_ratio=1.40 / aq=1:1.00

Аудио
Идентификатор : 2
Формат : AAC
Формат/Информация : Advanced Audio Codec
Профиль формата : LC
Идентификатор кодека : mp4a-40-2
Продолжительность : 48 м. 15 с.
Вид битрейта : Постоянный
Битрейт : 192 Кбит/сек
Каналы : 2 канала
Расположение каналов : Front: L R
Частота : 48,0 КГц
Частота кадров : 46,875 кадров/сек (1024 SPF)
Метод сжатия : С потерями
Размер потока : 66,2 Мбайт (7%)
Default : Да
AlternateGroup/String : 1

Прочее
Идентификатор : 3
Тип : Time code
Формат : QuickTime TC
Продолжительность : 48 м. 15 с.
Временной код первого кадра : 00:00:00:00
Временной код, чередующийся : Да
Язык : English
Default : Нет





   Похожие торренты   Торрент   Размер 
В этой теме нет новых непрочитанных сообщений. Тайны Чапман. Кому нужен кривой ствол (Эфир от 14.05.2019) (Рен ТВ) [2019, документальный, WEB-DLRip]

9 | 0

704.62 МБ

В этой теме нет новых непрочитанных сообщений. Тайны Чапман. Космические бомжи (Эфир от 13.05.2019) (Рен ТВ) [2019, документальный, WEB-DL 1080р]

3 | 1

1015.4 МБ

В этой теме нет новых непрочитанных сообщений. Тайны Чапман. Наши везде! (Эфир от 15.02.2019) (Рен ТВ) [2019, документальный, WEB-DL 1080р]

0 | 0

1.04 ГБ

В этой теме нет новых непрочитанных сообщений. Тайны Чапман. Города призраки (Эфир от 18.02.2019) (Рен ТВ) [2019, документальный, WEB-DL 1080р]

4 | 2

1.05 ГБ

В этой теме нет новых непрочитанных сообщений. Тайны Чапман. Кто лижет жабу (Эфир от 20.02.2019) (Рен ТВ) [2019, документальный, WEB-DL 1080р]

0 | 0

1.02 ГБ

В этой теме нет новых непрочитанных сообщений. Тайны Чапман. Кто лает днище? (Эфир от 21.02.2019) (Рен ТВ) [2019, документальный, WEB-DL 1080р]

0 | 0

1.02 ГБ

В этой теме нет новых непрочитанных сообщений. Тайны Чапман. Кто построил Cтоунхендж (Эфир от 14.02.2019) (Рен ТВ) [2019, документальный, WEB-DL 1080р]

0 | 0

1.03 ГБ




Вы не можете начинать темы
Вы не можете отвечать на сообщения
Вы не можете редактировать свои сообщения
Вы не можете удалять свои сообщения
Вы не можете добавлять вложения

Перейти:  
 Вход
ppkBB3cker v.2 © 2008-2014 @ PPK
[ Time : 0.028s | 17 Queries | GZIP : Off ]

cron